<?xml version="1.0" standalone="no"?>
<!DOCTYPE svg PUBLIC "-//W3C//DTD SVG 1.1//EN" "http://www.w3.org/Graphics/SVG/1.1/DTD/svg11.dtd" >
<svg xmlns="http://www.w3.org/2000/svg">
<metadata>Generated by IcoMoon</metadata>
<defs>
<font id="icomoon" horiz-adv-x="1024">
<font-face units-per-em="1024" ascent="960" descent="-64" />
<missing-glyph horiz-adv-x="1024" />
<glyph unicode="&#x20;" horiz-adv-x="512" d="" />
<glyph unicode="&#xe900;" glyph-name="building" d="M394.752 872.917c-26.795-2.731-45.483-9.344-64.299-22.784-19.627-14.037-34.944-33.621-43.179-55.339-8.96-23.68-9.301-28.587-10.283-149.12l-0.896-112.043-60.843-0.64c-57.941-0.64-61.312-0.853-71.68-4.523-21.461-7.595-39.723-23.253-48.768-41.771-9.472-19.328-9.429-17.963-9.429-206.123l-0.043-173.355-9.131-2.048c-11.563-2.603-22.016-10.24-28.032-20.437-3.968-6.741-4.651-9.856-4.651-20.736 0-10.923 0.683-13.995 4.736-20.864 5.333-9.088 13.568-16 22.997-19.371 9.515-3.413 871.979-3.413 881.493 0 9.429 3.371 17.664 10.283 22.997 19.371 4.053 6.869 4.736 9.941 4.736 20.864 0 10.88-0.683 13.995-4.651 20.736-6.172 10.179-16.055 17.583-27.73 20.376l-0.302 0.061-9.131 2.048-0.043 173.355c0 146.389-0.427 175.232-2.517 185.301-6.315 29.739-26.24 52.181-55.68 62.592-10.368 3.669-13.739 3.883-71.723 4.523l-60.8 0.64-0.853 110.336c-0.555 68.907-1.579 114.773-2.773 122.069-8.875 54.357-45.141 92.971-98.304 104.747-9.984 2.219-30.336 2.731-124.587 3.115-61.952 0.213-118.955-0.213-126.635-0.981zM636.203 785.28c10.283-4.48 20.181-16.299 22.443-26.837 1.28-5.888 1.835-108.203 1.835-330.155v-321.621h-296.96v321.621c0 219.947 0.555 324.309 1.792 330.069 3.039 10.827 9.943 19.702 19.095 25.237l0.191 0.107c2.944 1.536 9.984 3.328 15.616 4.011 5.632 0.725 59.392 1.152 119.467 0.981 102.187-0.256 109.696-0.469 116.523-3.413zM456.32 701.568c-10.333-3.519-18.737-10.43-24.080-19.381l-0.112-0.203c-3.883-6.656-4.608-9.813-4.608-20.651 0-10.923 0.683-13.995 4.736-20.864 5.333-9.088 13.568-16 22.997-19.371 9.173-3.285 104.32-3.285 113.493 0 9.429 3.371 17.664 10.283 22.997 19.371 4.053 6.869 4.736 9.941 4.736 20.864 0 10.837-0.725 13.995-4.608 20.651-5.526 9.348-14.195 16.34-24.524 19.586l-0.308 0.084c-10.709 3.243-100.395 3.157-110.72-0.085zM456.32 530.901c-10.333-3.519-18.737-10.43-24.080-19.381l-0.112-0.203c-3.883-6.656-4.608-9.813-4.608-20.651 0-10.923 0.683-13.995 4.736-20.864 5.333-9.088 13.568-16 22.997-19.371 9.173-3.285 104.32-3.285 113.493 0 9.429 3.371 17.664 10.283 22.997 19.371 4.053 6.869 4.736 9.941 4.736 20.864 0 10.837-0.725 13.995-4.608 20.651-5.526 9.348-14.195 16.34-24.524 19.586l-0.308 0.084c-10.709 3.243-100.395 3.157-110.72-0.085zM276.48 277.333v-170.667h-105.813v341.333h105.813v-170.667zM853.333 277.333v-170.667h-105.813v341.333h105.813v-170.667zM456.32 360.235c-10.333-3.519-18.737-10.43-24.080-19.381l-0.112-0.203c-3.883-6.656-4.608-9.813-4.608-20.651 0-10.923 0.683-13.995 4.736-20.864 5.333-9.088 13.568-16 22.997-19.371 9.173-3.285 104.32-3.285 113.493 0 9.429 3.371 17.664 10.283 22.997 19.371 4.053 6.869 4.736 9.941 4.736 20.864 0 10.837-0.725 13.995-4.608 20.651-5.526 9.348-14.195 16.34-24.524 19.586l-0.308 0.084c-10.709 3.243-100.395 3.157-110.72-0.085z" />
<glyph unicode="&#xe901;" glyph-name="clock-plus" d="M481.28 916.352l-23.893-2.56c-80.555-8.533-159.104-40.107-228.693-91.819-25.984-19.328-71.509-64.853-91.051-90.965-106.581-142.805-124.8-327.040-48.171-486.955 23.253-48.555 50.304-86.187 91.349-127.275 41.131-41.173 80.811-69.461 130.219-92.8 77.013-36.437 166.4-51.883 247.552-42.837 25.003 2.773 33.664 6.528 42.155 18.261 5.241 6.467 8.414 14.797 8.414 23.867 0 1.815-0.127 3.6-0.373 5.348l0.023-0.201c-1.075 12.548-7.46 23.417-16.871 30.47l-0.11 0.079c-11.051 8.021-17.92 9.173-41.429 6.912-11.248-1.163-24.305-1.826-37.516-1.826-91.544 0-175.651 31.842-241.848 85.055l0.751-0.584c-64.555 51.712-112.981 127.573-132.395 207.317-7.936 32.555-10.411 54.272-10.411 92.16 0 63.701 10.965 111.829 38.272 168.107 38.008 77.448 99.192 138.631 174.41 175.648l2.23 0.992c56.277 27.307 104.405 38.272 168.107 38.272s111.829-10.965 168.107-38.272c77.448-38.008 138.631-99.192 175.648-174.41l0.992-2.23c24.561-48.474 38.948-105.684 38.948-166.255 0-11.391-0.509-22.664-1.505-33.796l0.104 1.437c-2.688-34.304-1.579-39.552 11.008-52.48 13.867-14.251 32.085-17.664 48.725-9.131 7.637 3.925 18.005 14.677 20.523 21.291 3.285 8.576 6.656 43.051 6.741 68.267 0.171 103.936-32.341 201.643-95.104 285.739-19.371 25.941-64.981 71.552-90.88 90.795-68.053 50.603-139.733 80-222.592 91.264-18.048 2.475-78.891 4.523-91.435 3.115zM498.987 744.235c-10.333-3.519-18.737-10.43-24.080-19.381l-0.112-0.203-4.608-7.851-0.469-137.259c-0.427-122.923-0.171-138.112 2.304-145.579 5.376-16.128 7.979-17.792 100.779-64.128 56.277-28.117 88.192-43.136 93.269-43.904 5.12-0.768 10.795-0.256 16.853 1.536 17.977 5.102 30.924 21.371 30.924 40.664 0 7.024-1.716 13.648-4.752 19.474l0.111-0.234c-6.144 12.629-11.52 15.872-89.344 54.613l-65.109 32.384-0.939 242.432-4.608 7.851c-7.531 12.997-21.374 21.6-37.227 21.6-4.641 0-9.109-0.737-13.295-2.101l0.303 0.085zM797.653 317.568c-10.333-3.519-18.737-10.43-24.080-19.381l-0.112-0.203-4.608-7.851-0.512-49.067-0.555-49.067h-44.843c-48.939 0-55.509-0.939-66.645-9.429-3.413-2.603-8.32-8.277-10.837-12.587-3.883-6.656-4.608-9.813-4.608-20.651 0-10.923 0.683-13.995 4.736-20.864 2.603-4.395 7.381-10.069 10.667-12.544 11.136-8.533 15.232-9.088 65.152-9.173l46.379-0.085 0.555-49.195 0.512-49.237 5.163-8.363c7.549-12.6 21.13-20.904 36.651-20.904s29.102 8.304 36.543 20.711l0.107 0.193 5.163 8.363 0.512 49.237 0.555 49.195 46.379 0.085c49.92 0.085 54.016 0.64 65.152 9.173 3.285 2.475 8.064 8.149 10.667 12.544 4.053 6.869 4.736 9.941 4.736 20.864 0 10.837-0.725 13.995-4.608 20.651-3.006 4.864-6.602 9.016-10.76 12.523l-0.077 0.063c-11.136 8.491-17.707 9.429-66.645 9.429h-44.843l-0.555 49.067-0.512 49.067-4.608 7.851c-7.531 12.997-21.374 21.6-37.227 21.6-4.641 0-9.109-0.737-13.295-2.101l0.303 0.085z" />
<glyph unicode="&#xe902;" glyph-name="chevron-down" d="M241.92 616.064c-9.472-3.456-17.92-10.581-23.125-19.413-3.925-6.656-4.608-9.771-4.565-20.651 0-9.045 0.939-14.549 3.157-18.773 4.267-8.192 264.491-268.715 274.133-274.475 6.528-3.883 9.6-4.565 20.48-4.523 9.045 0 14.549 0.939 18.773 3.157 8.192 4.267 268.715 264.491 274.475 274.133 3.883 6.485 4.565 9.643 4.565 20.48s-0.725 13.995-4.608 20.651c-7.483 13.104-21.37 21.793-37.287 21.793-5.221 0-10.223-0.935-14.849-2.646l0.296 0.096c-7.637-2.56-19.072-13.44-124.885-118.997l-116.48-116.224-116.48 116.224c-105.813 105.557-117.248 116.437-124.885 118.997-4.345 1.606-9.364 2.535-14.6 2.535-5.055 0-9.908-0.866-14.418-2.458l0.303 0.093z" />
<glyph unicode="&#xe903;" glyph-name="chevron-left" d="M624.64 743.765c-6.613-2.261-25.771-20.693-140.501-135.125-75.819-75.648-134.784-135.765-137.387-140.16-3.883-6.485-4.565-9.643-4.565-20.48s0.683-13.995 4.565-20.48c5.803-9.685 266.368-269.952 274.261-273.877 19.413-9.771 44.629-1.92 55.979 17.365 4.139 7.040 4.821 9.984 4.779 20.992 0 9.045-0.939 14.549-3.157 18.773-1.707 3.285-55.083 58.027-118.571 121.6l-115.413 115.627 115.413 115.627c63.488 63.573 116.864 118.315 118.571 121.6 2.219 4.224 3.157 9.728 3.157 18.773 0.043 10.88-0.64 13.995-4.565 20.651-7.621 13.107-21.599 21.779-37.602 21.779-5.372 0-10.515-0.977-15.262-2.763l0.299 0.099z" />
<glyph unicode="&#xe904;" glyph-name="chevron-right" d="M369.92 744.064c-9.472-3.456-17.92-10.581-23.125-19.413-3.925-6.656-4.608-9.771-4.565-20.651 0-9.045 0.939-14.549 3.157-18.773 1.707-3.285 55.083-58.027 118.571-121.6l115.413-115.627-115.413-115.627c-63.488-63.573-116.864-118.315-118.571-121.6-2.219-4.224-3.157-9.728-3.157-18.773-0.043-11.008 0.64-13.952 4.779-20.992 5.547-9.472 15.744-17.451 25.728-20.181 8.619-2.304 22.613-1.024 30.251 2.816 7.893 3.925 268.459 264.192 274.261 273.877 3.883 6.485 4.565 9.643 4.565 20.48s-0.683 13.995-4.565 20.48c-2.603 4.395-61.525 64.512-137.387 140.16-121.003 120.661-133.589 132.693-141.227 135.253-4.345 1.606-9.364 2.535-14.6 2.535-5.055 0-9.908-0.866-14.418-2.458l0.303 0.093z" />
<glyph unicode="&#xe905;" glyph-name="chevron-up" d="M496.64 615.765c-6.613-2.261-25.771-20.693-140.501-135.125-75.819-75.648-134.784-135.765-137.387-140.16-3.883-6.485-4.565-9.643-4.565-20.48 0-10.965 0.683-13.952 4.821-20.992 5.547-9.472 15.744-17.451 25.728-20.181 8.619-2.304 22.613-1.024 30.251 2.816 3.157 1.579 57.813 54.827 121.387 118.315l115.627 115.413 115.627-115.413c63.573-63.488 118.229-116.736 121.387-118.315 19.413-9.771 44.629-1.92 55.979 17.365 4.139 7.040 4.821 10.027 4.821 20.992 0 10.837-0.683 13.995-4.565 20.48-2.603 4.395-61.525 64.512-137.387 140.16-121.003 120.661-133.589 132.693-141.227 135.253-4.414 1.593-9.508 2.513-14.817 2.513-5.444 0-10.661-0.968-15.49-2.742l0.312 0.1z" />
<glyph unicode="&#xe906;" glyph-name="home" d="M494.69 945.323c-13.031-2.621-24.581-7.488-34.792-14.222l0.366 0.227c-13.361-8.533-377.807-292.181-389.949-303.494-19.529-18.28-33.958-41.78-41.070-68.277l-0.232-1.014-3.755-13.848-0.536-226.743c-0.536-236.495-0.244-250.49 6.339-276.236 13.164-48.727 50.922-86.275 98.798-98.915l0.969-0.218c7.168-1.755 20.139-3.95 28.818-4.876 21.748-2.341 682.959-2.341 704.707 0 29.794 3.17 51.005 10.24 71.339 23.747 27.667 18.89 48.022 46.722 57.013 79.27l0.234 0.992c6.583 25.746 6.875 39.741 6.339 276.236l-0.536 226.743-3.803 13.848c-7.351 27.508-21.779 51.006-41.221 69.216l-0.080 0.074c-13.507 12.629-377.661 295.79-391.266 304.226-5.914 3.658-12.747 7.008-19.91 9.681l-0.813 0.266c-9.523 2.719-20.461 4.282-31.764 4.282-5.356 0-10.631-0.351-15.802-1.032l0.608 0.065zM696.271 706.097c100.254-77.97 185.442-144.677 189.294-148.285 3.901-3.56 9.021-10.142 11.41-14.677l4.291-8.192 0.488-216.99c0.536-237.373 0.195-249.271-7.363-261.559-5.999-9.164-14.675-16.14-24.91-19.881l-0.349-0.112c-5.461-1.658-77.58-2.048-357.132-2.048s-351.671 0.39-357.132 2.048c-10.583 3.853-19.26 10.829-25.141 19.801l-0.117 0.191c-7.558 12.288-7.899 24.235-7.363 261.559l0.488 216.99 3.706 7.461c1.999 4.096 6.534 10.191 9.996 13.605 9.557 9.314 372.785 291.694 375.32 291.791 1.219 0 84.261-63.732 184.515-141.702zM303.592 226.328c-20.446-5.897-35.147-24.441-35.147-46.418 0-6.171 1.159-12.072 3.272-17.496l-0.113 0.328c4.486-12.093 16.189-23.796 28.282-28.282 9.021-3.413 10.24-3.413 212.114-3.413s203.093 0 212.114 3.413c18.042 6.729 31.695 26.283 31.695 45.349 0 17.749-12.386 36.766-28.916 44.422l-7.656 3.511-203.971 0.341c-161.207 0.244-205.629-0.146-211.675-1.755z" />
<glyph unicode="&#xe907;" glyph-name="route" d="M203.971 893.635c-53.882-7.558-95.183-33.109-121.271-74.898-15.799-25.454-22.772-48.323-24.137-79.531-0.18-2.8-0.282-6.072-0.282-9.368 0-38.034 13.65-72.879 36.319-99.905l-0.197 0.241c22.978-27.477 54.341-47.256 90.124-55.424l1.109-0.213c15.994-3.413 48.128-3.852 63.537-0.878 52.22 10.314 94.785 44.413 116.558 90.293l0.422 0.989c11.069 23.942 13.507 36.084 13.556 67.584 0.049 31.451-2.341 43.349-13.556 67.584-21.434 45.093-61.6 78.313-110.162 89.888l-1.113 0.224c-12.434 2.731-41.74 4.73-50.907 3.413zM239.714 811.813c26.77-6.973 49.396-28.038 57.344-53.443 4.681-14.872 4.779-36.328 0.293-50.761-11.138-33.179-41.95-56.658-78.246-56.658-6.841 0-13.488 0.834-19.844 2.406l0.566-0.118c-24.3 6.245-43.883 22.681-54.253 44.365l-0.214 0.496c-6.193 12.922-6.242 13.361-6.242 34.426 0 21.114 0.049 21.455 6.388 34.718 13.394 28.044 41.529 47.074 74.108 47.074 7.14 0 14.066-0.914 20.669-2.631l-0.569 0.126zM466.7 768.658c-13.332-6.834-22.42-20.264-22.965-35.866l-0.002-0.072c0-15.799 12.776-33.938 26.478-37.449 3.755-1.024 44.958-2.584 92.16-3.511 100.84-2.048 114.786-3.706 124.099-14.531 5.809-6.637 9.352-15.385 9.352-24.96 0-2.12-0.174-4.199-0.507-6.224l0.030 0.221c-1.56-8.241-13.653-21.163-38.083-40.667-25.893-20.675-59.343-44.812-186.661-134.827-124.245-87.82-141.312-100.059-172.325-123.416-45.251-34.085-64.366-53.589-76.556-78.214-20.236-40.667-8.241-98.060 27.355-131.023 17.603-16.286 37.79-24.283 74.654-29.598 14.238-2.097 40.082-2.877 113.615-3.56l95.183-0.878 9.362 4.584c35.401 17.31 25.307 71.729-13.653 73.874-5.656 0.293-50.176 1.268-98.987 2.146-113.42 2.097-121.32 3.267-131.316 19.358-3.499 5.317-5.628 11.808-5.753 18.789v0.033c-0.683 10.094-0.439 10.825 5.9 18.432 17.798 21.455 39.058 37.352 236.983 177.25 158.866 112.299 181.979 129.755 207.482 156.477 16.238 17.115 27.16 35.694 30.476 51.834 2.926 14.434 2.584 39.936-0.731 52.76-8.875 34.182-29.306 61.099-56.32 74.167-29.257 14.19-50.322 16.53-156.184 17.408-81.92 0.683-86.552 0.536-93.086-2.536zM769.512 324.681c-71.71-8.767-128.457-63.329-140.444-133.184l-0.136-0.96c-13.507-77.531 33.89-155.648 109.227-179.834 15.010-5.091 32.298-8.029 50.273-8.029 75.016 0 138.079 51.177 156.18 120.522l0.249 1.123c2.996 12.064 4.716 25.913 4.716 40.164 0 12.769-1.38 25.215-3.999 37.198l0.21-1.147c-14.488 59.88-60.725 106.15-119.477 120.457l-1.111 0.229c-16.579 3.901-40.375 5.364-55.686 3.462zM804.035 244.37c32.817-6.193 59.928-34.621 65.146-68.218 6.388-41.594-22.187-83.139-63.293-91.916-5.271-1.233-11.323-1.94-17.541-1.94-23.668 0-44.944 10.245-59.634 26.542l-0.064 0.072c-13.663 13.843-22.102 32.872-22.102 53.871 0 0.501 0.005 1.001 0.014 1.5l-0.001-0.075c0 23.552 8.485 42.618 26.624 59.587 14.067 13.78 33.348 22.285 54.615 22.285 5.75 0 11.356-0.622 16.752-1.802l-0.516 0.095z" />
<glyph unicode="&#xe908;" glyph-name="search" d="M452.267 872.704c-95.202-9.292-179.366-50.43-243.075-112.47l0.089 0.086c-80.085-77.611-123.947-180.565-123.947-290.987 0-139.691 72.277-269.483 192-344.789 49.792-31.317 113.024-52.565 174.677-58.752 97.621-9.813 201.899 19.157 279.381 77.568l14.080 10.624 61.184-61.312c33.664-33.707 64.427-63.232 68.352-65.579 19.584-11.691 46.037-4.395 57.984 15.915 4.139 7.040 4.821 10.027 4.821 20.992 0 10.837-0.683 13.952-4.565 20.48-2.517 4.224-32.213 35.2-65.92 68.864l-61.312 61.184 10.624 14.080c21.438 28.503 39.562 61.236 52.818 96.356l0.899 2.716c16.231 42.094 25.633 90.799 25.633 141.7 0 96.685-33.923 185.447-90.516 255.032l0.585-0.742c-21.42 25.339-44.632 47.874-69.873 67.97l-0.996 0.766c-67.362 51.219-152.651 82.055-245.142 82.055-13.303 0-26.457-0.638-39.433-1.885l1.652 0.128zM521.515 787.499c76.744-7.64 144.417-41.446 195.065-92.238l0.007-0.007c57.904-57.779 93.727-137.667 93.727-225.921 0-36.287-6.056-71.16-17.213-103.662l0.67 2.245c-25.71-73.848-74.997-134.018-138.688-172.927l-1.43-0.812c-67.499-40.363-149.931-54.059-228.779-38.016-106.069 21.632-197.717 101.504-235.051 204.8-11.9 32.257-18.785 69.511-18.785 108.373s6.884 76.117 19.5 110.61l-0.715-2.237c39.007 104.809 128.060 182.645 237.32 205.167l2.082 0.359c18.302 3.69 39.341 5.802 60.873 5.802 11.063 0 21.996-0.557 32.772-1.646l-1.357 0.111z" />
<glyph unicode="&#xe909;" glyph-name="x-close" d="M241.92 744.064c-9.472-3.456-17.92-10.581-23.125-19.413-3.925-6.656-4.608-9.771-4.565-20.651 0-9.045 0.939-14.549 3.157-18.773 1.707-3.285 55.083-58.027 118.571-121.6l115.413-115.627-115.413-115.627c-63.488-63.573-116.864-118.315-118.571-121.6-2.219-4.224-3.157-9.728-3.157-18.773-0.043-11.008 0.64-13.952 4.779-20.992 5.547-9.472 15.744-17.451 25.728-20.181 8.619-2.304 22.613-1.024 30.251 2.816 3.157 1.579 57.813 54.827 121.387 118.315l115.627 115.413 115.627-115.413c63.573-63.488 118.315-116.864 121.6-118.571 4.224-2.219 9.728-3.157 18.773-3.157 11.008-0.043 13.952 0.64 20.992 4.779 9.472 5.547 17.451 15.744 20.181 25.728 2.304 8.619 1.024 22.613-2.816 30.251-1.579 3.157-54.827 57.813-118.315 121.387l-115.413 115.627 115.413 115.627c63.488 63.573 116.864 118.315 118.571 121.6 2.219 4.224 3.157 9.728 3.157 18.773 0.043 10.88-0.64 13.995-4.565 20.651-7.483 13.104-21.37 21.793-37.287 21.793-5.221 0-10.223-0.935-14.849-2.646l0.296 0.096c-7.637-2.56-19.072-13.44-124.885-118.997l-116.48-116.224-116.48 116.224c-105.813 105.557-117.248 116.437-124.885 118.997-4.345 1.606-9.364 2.535-14.6 2.535-5.055 0-9.908-0.866-14.418-2.458l0.303 0.093z" />
<glyph unicode="&#xe90a;" glyph-name="star" d="M485.737 925.3c9.717 23.361 42.81 23.361 52.527 0l117.54-282.594c4.096-9.849 13.358-16.578 23.99-17.43l305.084-24.458c25.219-2.022 35.447-33.496 16.23-49.956l-232.442-199.112c-8.101-6.94-11.639-17.829-9.165-28.2l71.014-297.711c5.871-24.61-20.901-44.066-42.496-30.874l-261.192 159.534c-9.103 5.558-20.551 5.558-29.654 0l-261.195-159.534c-21.592-13.193-48.366 6.263-42.495 30.874l71.015 297.711c2.475 10.371-1.063 21.259-9.164 28.2l-232.442 199.112c-19.215 16.46-8.989 47.934 16.232 49.956l305.084 24.458c10.633 0.852 19.894 7.582 23.991 17.43l117.538 282.594z" />
<glyph unicode="&#xe90b;" glyph-name="calendar" d="M328.32 914.901c-10.333-3.519-18.737-10.43-24.080-19.381l-0.112-0.203c-4.395-7.509-4.651-9.045-5.163-35.371l-0.597-27.563-26.709-1.152c-45.952-2.005-70.656-6.955-94.165-18.859-44.845-22.647-77.232-64.361-86.71-114.192l-0.159-1.008c-4.736-24.277-5.291-55.253-5.291-291.84 0-271.275 0.256-278.443 10.453-312.32 14.165-47.019 56.875-89.728 103.893-103.893 31.829-9.6 48.811-10.453 204.8-10.453l137.387 0.043 8.533 4.011c16.256 7.723 25.088 21.333 25.088 38.613 0 16.427-8.32 29.995-23.381 38.144-6.827 3.669-7.211 3.669-156.16 4.608-159.573 1.024-160.683 1.067-179.2 9.771-11.435 5.333-30.037 23.595-35.499 34.859-9.515 19.584-9.387 16.555-10.112 206.592l-0.683 175.36h682.88v-14.933c0.043-12.16 0.768-16.512 4.053-23.467 7.723-16.256 21.333-25.088 38.613-25.088s30.891 8.832 38.613 25.088l4.011 8.533 0.043 94.72c0 110.891-1.365 131.968-10.453 162.133-9.557 31.829-33.451 63.616-62.635 83.413-30.464 20.651-56.875 27.691-113.237 30.165l-26.709 1.152-0.597 27.563c-0.512 26.411-0.725 27.819-5.205 35.456-7.625 12.82-21.406 21.277-37.163 21.277s-29.538-8.457-37.054-21.079l-0.109-0.198c-4.48-7.637-4.693-9.045-5.205-35.669l-0.597-27.733h-255.403l-0.597 27.733c-0.512 26.539-0.768 28.075-5.163 35.584-7.531 12.997-21.374 21.6-37.227 21.6-4.641 0-9.109-0.737-13.295-2.101l0.303 0.085zM298.965 718.805c0.555-27.605 0.597-27.947 5.717-36.267 7.549-12.6 21.13-20.904 36.651-20.904s29.102 8.304 36.543 20.711l0.107 0.193c5.12 8.32 5.163 8.661 5.717 36.267l0.597 27.861h255.403l0.597-27.861c0.555-27.605 0.597-27.947 5.717-36.267 7.549-12.6 21.13-20.904 36.651-20.904s29.102 8.304 36.543 20.711l0.107 0.193c5.12 8.32 5.163 8.619 5.76 36.48l0.555 28.075 25.899-1.195c44.416-2.048 57.771-6.4 76.203-24.832 20.779-20.736 23.552-31.573 25.045-97.707l1.067-47.36h-683.691l1.067 47.36c1.451 63.189 4.224 75.52 21.632 94.848 19.029 21.248 38.485 27.179 92.459 28.203l13.056 0.256 0.597-27.861zM754.987 360.235c-10.333-3.519-18.737-10.43-24.080-19.381l-0.112-0.203-4.608-7.851-0.512-49.067-0.555-49.067h-44.843c-48.939 0-55.509-0.939-66.645-9.429-3.413-2.603-8.32-8.277-10.837-12.587-3.883-6.656-4.608-9.813-4.608-20.651 0-10.923 0.683-13.995 4.736-20.864 2.603-4.395 7.381-10.069 10.667-12.544 11.136-8.533 15.232-9.088 65.152-9.173l46.379-0.085 0.555-49.195 0.512-49.237 5.163-8.363c7.549-12.6 21.13-20.904 36.651-20.904s29.102 8.304 36.543 20.711l0.107 0.193 5.163 8.363 0.512 49.237 0.555 49.195 46.379 0.085c49.92 0.085 54.016 0.64 65.152 9.173 3.285 2.475 8.064 8.149 10.667 12.544 4.053 6.869 4.736 9.941 4.736 20.864 0 10.837-0.725 13.995-4.608 20.651-3.006 4.864-6.602 9.016-10.76 12.523l-0.077 0.063c-11.136 8.491-17.707 9.429-66.645 9.429h-44.843l-0.555 49.067-0.512 49.067-4.608 7.851c-7.531 12.997-21.374 21.6-37.227 21.6-4.641 0-9.109-0.737-13.295-2.101l0.303 0.085z" />
<glyph unicode="&#xe90c;" glyph-name="checkbox" d="M205.67 958.208c-63.949-3.328-104.602-19.149-142.336-55.245-39.373-37.683-56.883-78.694-61.645-144.23-2.202-30.925-2.202-590.541 0-621.466 4.762-65.536 22.323-106.65 61.645-144.179 37.376-35.738 75.059-50.842 137.933-55.398 30.925-2.202 590.541-2.202 621.466 0 66.048 4.762 106.906 22.374 144.947 62.464 34.97 36.762 50.125 74.906 54.63 137.114 2.202 30.925 2.202 590.541 0 621.466-1.946 27.136-5.325 46.694-11.315 65.382-18.022 56.627-68.352 106.291-125.696 123.904-17.459 5.376-39.578 8.602-71.219 10.291-34.662 1.843-572.621 1.792-608.41-0.102zM811.827 855.91c14.234-0.87 31.13-2.816 37.53-4.301 30.413-7.014 59.238-35.84 66.304-66.355 5.12-22.067 5.837-64.973 5.837-337.254 0-272.538-0.717-315.136-5.888-337.357-4.756-17.624-14.135-32.644-26.758-44.173l-0.071-0.064c-19.098-17.766-33.741-23.347-69.018-26.266-27.085-2.253-588.442-2.253-615.526 0-35.277 2.918-49.92 8.499-69.018 26.266-12.693 11.593-22.073 26.613-26.681 43.596l-0.148 0.641c-5.171 22.221-5.888 64.819-5.888 337.357s0.717 315.136 5.888 337.357c3.43 15.002 13.21 31.334 25.856 43.315 19.763 18.739 36.25 24.832 73.984 27.136 31.13 1.894 572.928 1.997 603.597 0.102zM729.958 651.059c-4.616-1.264-8.579-2.766-12.358-4.59l0.428 0.186c-3.021-1.485-67.891-65.075-144.128-141.21l-138.65-138.445-61.901 61.747c-69.683 69.53-69.581 69.427-91.75 69.427-15.923 0-25.805-4.096-36.557-15.104-8.938-9.010-14.461-21.418-14.461-35.117 0-6.563 1.268-12.83 3.572-18.569l-0.119 0.336c3.379-9.318 8.55-14.848 88.32-94.566 79.718-79.77 85.248-84.941 94.566-88.32 12.544-4.608 24.013-4.608 36.557-0.051 9.421 3.482 17.050 10.803 171.418 165.12 154.317 154.368 161.638 161.997 165.12 171.418 2.156 5.37 3.406 11.596 3.406 18.114 0 6.468-1.231 12.649-3.473 18.32l0.118-0.338c-5.241 12.383-14.403 22.257-25.904 28.268l-0.31 0.148c-6.775 2.65-14.619 4.186-22.822 4.186-3.912 0-7.743-0.349-11.463-1.019l0.391 0.058z" />
<glyph unicode="&#xe90d;" glyph-name="layout-left" d="M205.67 958.208c-63.949-3.328-104.602-19.149-142.336-55.245-39.373-37.683-56.883-78.694-61.645-144.23-2.202-30.925-2.202-590.541 0-621.466 4.762-65.536 22.323-106.65 61.645-144.179 37.376-35.738 75.059-50.842 137.933-55.398 30.925-2.202 590.541-2.202 621.466 0 66.048 4.762 106.906 22.374 144.947 62.464 34.97 36.762 50.125 74.906 54.63 137.114 2.202 30.925 2.202 590.541 0 621.466-1.946 27.136-5.325 46.694-11.315 65.382-18.022 56.627-68.352 106.291-125.696 123.904-17.459 5.376-39.578 8.602-71.219 10.291-34.662 1.843-572.621 1.792-608.41-0.102zM307.2 448v-409.6l-41.37 0.051c-84.736 0.051-105.37 4.454-130.611 27.955-12.693 11.593-22.073 26.613-26.681 43.596l-0.148 0.641c-5.171 22.221-5.888 64.819-5.888 337.357s0.717 315.136 5.888 337.357c5.12 22.118 23.603 45.824 45.363 58.214 18.278 10.394 42.394 13.312 114.637 13.773l38.81 0.256v-409.6zM811.827 855.91c14.234-0.87 31.078-2.816 37.427-4.25 30.515-7.066 59.341-35.891 66.355-66.304 5.171-22.221 5.888-64.819 5.888-337.357s-0.717-315.136-5.888-337.357c-4.756-17.624-14.135-32.644-26.758-44.173l-0.071-0.064c-19.098-17.766-33.741-23.347-69.018-26.266-11.622-0.973-102.81-1.69-215.194-1.69l-194.97-0.051v819.2l188.16-0.051c103.475 0 199.834-0.768 214.067-1.638z" />
<glyph unicode="&#xe90e;" glyph-name="marker-pin" d="M492.373 916.352c-35.2-3.371-55.040-7.552-81.92-17.237-92.535-34.264-162.327-110.397-187.14-204.766l-0.465-2.082c-6.955-27.691-8.576-42.112-8.491-75.307 0.043-25.941 0.725-34.688 3.797-49.067 10.667-49.451 33.067-94.848 69.376-140.373 16.256-20.437 62.379-69.845 79.872-85.675 17.365-15.659 62.123-63.189 76.843-81.579 6.357-7.979 17.024-23.552 23.637-34.603s14.507-21.973 17.536-24.277c7.271-5.655 16.531-9.066 26.588-9.066 10.032 0 19.271 3.394 26.632 9.097l-0.1-0.074c3.029 2.304 10.667 12.843 17.024 23.424 6.315 10.624 16.427 25.6 22.443 33.365 13.525 17.365 60.203 67.115 79.36 84.565 18.517 16.896 62.677 64.213 79.104 84.821 52.651 66.091 76.928 132.779 73.643 202.112-1.664 34.944-6.443 59.349-17.664 90.581-36.565 101.632-127.659 176.939-233.429 192.939-16.043 2.432-54.997 4.309-66.645 3.2zM535.552 830.165c81-9.307 147.558-62.716 175.632-135.288l0.496-1.459c5.717-14.848 9.941-33.493 12.075-53.419 6.229-58.496-12.459-109.653-61.824-168.96-7.808-9.387-39.595-42.795-70.656-74.24-31.019-31.445-61.355-62.933-67.328-69.973-6.016-7.040-11.349-12.8-11.947-12.8s-5.931 5.76-11.947 12.8c-5.973 7.040-36.309 38.528-67.328 69.973-73.131 74.069-93.952 99.157-112.256 135.595-13.524 25.897-21.458 56.561-21.458 89.078 0 17.814 2.381 35.071 6.842 51.471l-0.318-1.371c24.466 92.686 107.551 159.912 206.338 159.912 8.342 0 16.573-0.479 24.665-1.412l-0.987 0.093zM489.685 700.885c-28.629-7.509-52.864-32-60.459-61.227-1.576-6.242-2.48-13.407-2.48-20.784 0-14.551 3.519-28.28 9.752-40.383l-0.232 0.495c5.803-11.477 24.576-30.251 36.053-36.053 11.539-6.009 25.198-9.534 39.68-9.534s28.141 3.525 40.166 9.763l-0.486-0.229c11.349 5.76 30.208 24.533 35.883 35.755 6.043 11.576 9.589 25.283 9.589 39.818 0 7.188-0.867 14.173-2.502 20.856l0.124-0.599c-3.316 14.688-10.44 27.375-20.278 37.387l0.011-0.011c-15.454 17.011-37.662 27.648-62.355 27.648-0.053 0-0.107 0-0.16 0h0.008c-6.101 0-16.128-1.323-22.315-2.901zM204.8 392.235c-6.4-1.237-37.077-16.128-54.997-26.709-30.677-18.133-58.88-42.368-76.843-66.005-10.897-15.179-19.834-32.728-25.908-51.563l-0.375-1.344c-4.224-15.403-4.224-51.157 0-66.56 4.224-15.445 16.299-39.723 26.325-52.907 12.843-16.896 40.619-42.581 60.373-55.765 138.837-92.8 404.181-120.021 612.437-62.805 77.867 21.376 139.563 52.651 179.627 91.051 21.291 20.395 31.872 34.219 41.429 53.973 9.515 19.712 12.672 31.744 13.909 52.992 2.432 41.301-14.592 80.512-50.048 115.499-25.216 24.832-52.139 43.093-90.667 61.525-16.213 7.765-19.584 8.747-29.397 8.747-0.245 0.005-0.533 0.008-0.822 0.008-22.975 0-41.6-18.625-41.6-41.6 0-1.521 0.082-3.022 0.241-4.501l-0.016 0.183c1.963-18.987 9.344-27.051 37.76-41.301 43.264-21.675 70.997-44.373 82.901-67.883 5.12-10.069 5.931-13.269 5.931-23.936 0-16.939-7.040-30.72-24.704-48.597-59.563-60.117-204.032-100.736-358.357-100.736-154.155 0-298.283 40.491-358.315 100.608-17.621 17.707-24.747 31.659-24.747 48.725 0 10.667 0.811 13.867 5.931 23.936 11.904 23.509 39.637 46.208 82.901 67.883 28.373 14.208 35.797 22.315 37.717 41.259 0.111 1.148 0.174 2.481 0.174 3.83 0 21.872-16.624 39.862-37.926 42.022l-0.178 0.015c-1.854 0.206-4.005 0.324-6.182 0.324-2.317 0-4.602-0.133-6.849-0.393l0.274 0.026z" />
<glyph unicode="&#xe90f;" glyph-name="menu" d="M114.987 744.235c-10.333-3.519-18.737-10.43-24.080-19.381l-0.112-0.203c-3.883-6.656-4.608-9.813-4.608-20.651 0-10.923 0.683-13.995 4.736-20.864 5.333-9.088 13.568-16 22.997-19.371 9.515-3.413 786.645-3.413 796.16 0 9.429 3.371 17.664 10.283 22.997 19.371 4.053 6.869 4.736 9.941 4.736 20.864 0 10.837-0.725 13.995-4.608 20.651-5.526 9.348-14.195 16.34-24.524 19.586l-0.308 0.084c-11.221 3.371-782.635 3.285-793.387-0.085zM114.987 488.235c-10.333-3.519-18.737-10.43-24.080-19.381l-0.112-0.203c-3.883-6.656-4.608-9.813-4.608-20.651 0-10.923 0.683-13.995 4.736-20.864 5.333-9.088 13.568-16 22.997-19.371 5.248-1.877 54.101-2.261 270.080-2.261s264.832 0.384 270.080 2.261c9.429 3.371 17.664 10.283 22.997 19.371 4.053 6.869 4.736 9.941 4.736 20.864 0 10.837-0.725 13.995-4.608 20.651-5.526 9.348-14.195 16.34-24.524 19.586l-0.308 0.084c-11.179 3.371-526.635 3.285-537.387-0.085zM114.987 232.235c-10.333-3.519-18.737-10.43-24.080-19.381l-0.112-0.203c-3.883-6.656-4.608-9.813-4.608-20.651 0-10.923 0.683-13.995 4.736-20.864 5.333-9.088 13.568-16 22.997-19.371 9.515-3.413 786.645-3.413 796.16 0 9.429 3.371 17.664 10.283 22.997 19.371 4.053 6.869 4.736 9.941 4.736 20.864 0 10.837-0.725 13.995-4.608 20.651-5.526 9.348-14.195 16.34-24.524 19.586l-0.308 0.084c-11.221 3.371-782.635 3.285-793.387-0.085z" />
<glyph unicode="&#xe910;" glyph-name="minus-circle" d="M479.558 959.023l-24.716-2.56c-119.901-11.962-240.64-73.775-322.281-165.050-90.298-100.957-136.239-226.164-132.003-359.61 7.354-230.447 165.748-425.612 390.47-481.14 131.817-32.582 276.666-9.356 391.494 62.743 112.074 70.612 193.792 180.675 226.118 310.285l0.744 3.525c10.985 44.87 13.545 67.77 13.545 120.785s-2.56 75.916-13.545 120.785c-50.735 207.034-221.231 359.377-433.385 387.119-18.199 2.374-84.294 4.515-96.442 3.119zM576.838 861.882c137.064-22.424 250.156-108.503 309.45-226.311l1.101-2.414c14.476-29.463 22.435-50.874 29.929-80.012 9.961-38.912 11.962-56.32 11.962-105.146 0-48.78-2.001-66.281-11.916-104.913-32.628-127.162-125.533-233.332-247.901-283.276-50.641-20.666-100.026-30.115-157.463-30.115-45.428 0-75.45 4.189-118.132 16.477-110.452 31.791-206.383 112.593-257.257 216.669-17.793 34.853-31.229 75.3-38.171 117.927l-0.322 2.393c-4.329 27.276-5.26 84.247-1.908 113.245 22.934 191.56 172.272 342.2 361.219 366.924l2.115 0.226c25.74 3.258 92.393 2.327 117.295-1.676zM310.179 491.66c-17.781-6.416-30.263-23.145-30.263-42.789 0-0.306 0.003-0.611 0.009-0.916l-0.001 0.046c-0.005-0.263-0.009-0.573-0.009-0.884 0-17.587 9.922-32.856 24.474-40.515l0.25-0.12 6.842-3.724h401.036l6.842 3.724c14.802 7.779 24.724 23.048 24.724 40.635 0 0.311-0.003 0.621-0.009 0.93l0.001-0.046c0 18.246-9.030 32.908-26.019 42.217-5.167 2.839-17.78 3.025-203.497 3.398-162.583 0.279-199.121-0.047-204.381-1.955z" />
<glyph unicode="&#xe911;" glyph-name="plus-circle" d="M481.28 916.352l-23.893-2.56c-56.060-6.424-107.139-22.066-153.664-45.44l2.624 1.194c-48.427-23.509-84.779-49.707-125.525-90.411-41.003-40.917-68.053-78.549-91.349-127.189-76.629-159.915-58.411-344.149 48.171-486.955 20.267-27.136 65.152-71.808 92.757-92.331 169.131-125.781 395.349-125.312 564.779 1.152 25.984 19.371 71.637 65.024 91.008 91.008 126.891 170.027 126.891 396.331 0 566.357-19.371 25.941-64.981 71.552-90.88 90.795-68.053 50.603-139.733 80-222.592 91.264-18.048 2.475-78.891 4.523-91.435 3.115zM568.32 827.691c109.355-16.512 204.971-78.080 266.24-171.477 12.928-19.755 31.701-57.984 39.765-81.067 14.763-42.368 20.693-78.72 20.693-127.147 0-63.701-10.965-111.829-38.272-168.107-30.080-62.037-75.477-113.792-134.528-153.259-33.664-22.528-87.509-45.056-128.811-53.973-24.244-5.414-52.089-8.515-80.658-8.515-91.486 0-175.543 31.805-241.717 84.962l0.754-0.586c-64.555 51.712-112.981 127.573-132.395 207.317-7.936 32.555-10.411 54.272-10.411 92.16 0 63.701 10.965 111.829 38.272 168.107 45.622 92.339 124.633 162.383 220.876 195.211l2.698 0.799c30.080 9.941 54.272 14.848 93.013 18.859 13.739 1.408 67.029-0.64 84.48-3.285zM498.987 658.901c-10.333-3.519-18.737-10.43-24.080-19.381l-0.112-0.203-4.608-7.851-0.512-70.4-0.469-70.4h-66.219c-71.979 0-76.245-0.469-88.021-9.429-3.413-2.603-8.32-8.277-10.837-12.587-3.883-6.656-4.608-9.813-4.608-20.651 0-10.923 0.683-13.995 4.736-20.864 2.603-4.395 7.381-10.069 10.667-12.544 11.648-8.875 13.611-9.088 86.485-9.173l67.797-0.085 0.469-70.528 0.512-70.528 5.163-8.405c2.901-4.693 8.747-10.795 13.269-13.867 20.096-13.483 47.019-7.296 60.032 13.867l5.163 8.405 0.512 70.528 0.469 70.528 67.797 0.085c72.875 0.085 74.837 0.299 86.485 9.173 3.285 2.475 8.064 8.149 10.667 12.544 4.053 6.869 4.736 9.941 4.736 20.864 0 10.837-0.725 13.995-4.608 20.651-3.006 4.864-6.602 9.016-10.76 12.523l-0.077 0.063c-11.776 8.96-16.043 9.429-88.021 9.429h-66.219l-0.469 70.4-0.512 70.4-4.608 7.851c-7.531 12.997-21.374 21.6-37.227 21.6-4.641 0-9.109-0.737-13.295-2.101l0.303 0.085z" />
<glyph unicode="&#xe912;" glyph-name="smile" d="M479.558 959.023l-24.716-2.56c-119.901-11.962-240.64-73.775-322.281-165.050-90.298-100.957-136.239-226.164-132.003-359.61 7.354-230.447 165.748-425.612 390.47-481.14 131.817-32.582 276.666-9.356 391.494 62.743 112.074 70.612 193.792 180.675 226.118 310.285l0.744 3.525c10.985 44.87 13.545 67.77 13.545 120.785s-2.56 75.916-13.545 120.785c-50.735 207.034-221.231 359.377-433.385 387.119-18.199 2.374-84.294 4.515-96.442 3.119zM576.838 861.882c137.064-22.424 250.156-108.503 309.45-226.311l1.101-2.414c14.476-29.463 22.435-50.874 29.929-80.012 9.961-38.912 11.962-56.32 11.962-105.146 0-48.78-2.001-66.281-11.916-104.913-32.628-127.162-125.533-233.332-247.901-283.276-50.641-20.666-100.026-30.115-157.463-30.115-45.428 0-75.45 4.189-118.132 16.477-110.452 31.791-206.383 112.593-257.257 216.669-17.793 34.853-31.229 75.3-38.171 117.927l-0.322 2.393c-4.329 27.276-5.26 84.247-1.908 113.245 22.934 191.56 172.272 342.2 361.219 366.924l2.115 0.226c25.74 3.258 92.393 2.327 117.295-1.676zM361.472 656.151c-20.294-2.467-43.334-19.596-52.038-38.54-21.318-46.639 12.428-99.7 63.348-99.607 18.897 0 34.49 6.656 48.5 20.713 18.618 18.572 25.228 43.567 18.013 68.143-9.821 33.606-41.658 53.76-77.824 49.292zM640.605 656.151c-25.507-3.537-48.268-23.645-55.901-49.292-1.8-5.795-2.837-12.457-2.837-19.361 0-19.169 7.992-36.472 20.825-48.758l0.025-0.023c14.010-14.057 29.603-20.713 48.5-20.713 57.577-0.093 90.903 67.537 55.296 112.221-12.933 16.365-32.781 26.772-55.059 26.772-3.83 0-7.588-0.308-11.251-0.899l0.402 0.054zM313.716 399.639c-9.895-3.299-18.266-8.937-24.757-16.277l-0.052-0.060c-6.33-7.447-9.542-19.642-8.611-32.815 0.698-9.821 1.815-13.219 6.842-20.713 25.786-38.4 86.295-82.013 138.845-99.98 32.768-11.217 43.846-12.893 86.016-12.893s53.248 1.676 86.016 12.893c52.55 17.967 113.059 61.58 138.845 99.98 11.45 17.082 9.263 42.403-4.887 56.599-10.193 10.147-20.527 14.569-33.932 14.429-16.244-0.186-22.249-3.631-43.287-24.716-47.197-47.29-89.321-67.072-142.755-67.072s-95.558 19.782-142.755 67.072c-10.799 10.845-21.271 19.735-25.041 21.318-5.528 2.314-11.952 3.658-18.69 3.658-4.188 0-8.255-0.519-12.139-1.497l0.342 0.073z" />
<glyph unicode="&#xe913;" glyph-name="star-outline" d="M494.918 905.263c-15.779-4.375-27.136-12.288-37.888-26.391-4.003-5.306-30.999-57.809-63.209-122.88-54.609-116.586-73.594-154.090-92.747-191.494l35.868 77.132c-0.372-0.372-55.017-8.611-121.437-18.292s-125.533-18.711-131.351-20.108c-23.692-5.679-41.193-18.758-51.014-38.074-4.608-9.123-4.98-11.264-4.98-28.625 0-16.989 0.419-19.689 4.655-28.16 2.513-5.167 8.285-13.824 12.8-19.27 4.468-5.446 47.337-47.942 95.185-94.441 47.849-46.545 87.273-85.225 87.599-86.063 0.279-0.791-8.797-55.855-20.201-122.275-11.404-66.467-21.178-126.231-21.69-132.841-1.722-22.714 4.701-40.262 20.759-56.413 12.009-12.102 24.343-17.687 41.937-19.037 22.435-1.722 19.223-3.165 164.212 73.169 53.248 28.020 97.652 50.967 98.583 50.967 0.977 0 45.335-22.947 98.583-50.967 144.663-76.195 141.777-74.892 164.212-73.169 17.594 1.35 29.929 6.935 41.937 19.037 16.012 16.105 22.575 34.351 20.713 57.297-0.512 6.097-10.24 65.489-21.644 131.956-11.404 66.42-20.48 121.484-20.201 122.275 0.326 0.838 39.75 39.517 87.599 86.063 47.849 46.499 90.717 88.995 95.185 94.441 4.515 5.446 10.287 14.103 12.8 19.27 4.236 8.471 4.655 11.171 4.655 28.16 0 17.361-0.372 19.503-4.98 28.625-9.821 19.316-27.322 32.396-51.014 38.074-5.818 1.396-64.931 10.426-131.351 20.108-77.276 10.306-118.658 16.727-159.91 23.53l38.473-5.237c14.854-35.639-3.882 1.362-22.445 38.465l-33.689 74.361c-30.487 61.673-58.647 116.689-62.557 122.275-17.594 25.041-46.080 36.119-73.449 28.532zM558.918 689.664c31.41-66.326 48.666-100.191 66.257-133.852l-14.545 30.568c12.614-21.83 28.486-31.558 60.090-36.864 10.799-1.769 61.3-9.309 112.221-16.663s92.579-13.917 92.579-14.522c0-0.605-35.747-35.887-79.407-78.429-43.706-42.496-81.687-80.663-84.433-84.806-6.89-10.042-11.004-22.459-11.004-35.837 0-1.016 0.024-2.026 0.071-3.031l-0.005 0.142c0.093-9.076 6.284-49.105 18.432-119.249 10.054-58.089 18.013-105.891 17.687-106.17-0.326-0.326-44.916 22.714-99.095 51.2-54.179 28.439-102.121 52.783-106.589 54.086-5.759 1.442-12.371 2.27-19.177 2.27s-13.417-0.827-19.741-2.387l0.564 0.118c-4.468-1.303-52.41-25.647-106.589-54.086-54.179-28.486-98.769-51.526-99.095-51.2-0.326 0.279 7.633 48.081 17.687 106.17 12.148 70.144 18.339 110.173 18.432 119.249 0.042 0.862 0.065 1.873 0.065 2.889 0 13.378-4.113 25.795-11.145 36.055l0.141-0.218c-2.746 4.143-40.727 42.31-84.433 84.806-43.66 42.543-79.407 77.824-79.407 78.429s41.658 7.168 92.579 14.522c97.209 12.781 135.465 18.633 173.654 24.684l-61.432-8.021c31.604 5.306 47.476 15.034 60.090 36.864 3.119 5.446 26.391 51.898 51.712 103.284 25.321 51.433 46.452 93.463 46.918 93.463s21.597-42.077 46.918-93.463z" />
<glyph unicode="&#xe914;" glyph-name="ticket" d="M159.957 830.080c-41.728-4.011-73.045-21.845-94.805-53.973-8.875-13.099-13.141-22.827-17.749-40.533-3.2-12.331-3.584-19.883-4.309-79.147-0.811-73.472-0.725-74.411 11.349-87.808 8.491-9.429 16.939-12.672 38.144-14.677 29.653-2.816 48.043-11.221 67.755-30.933 12.245-12.245 20.267-24.576 26.112-40.149 3.243-8.747 3.755-13.483 3.755-34.859s-0.512-26.112-3.755-34.859c-9.813-26.24-30.336-49.365-53.76-60.501-15.787-7.509-24.917-9.813-44.8-11.435-16.768-1.323-25.429-4.949-33.451-13.824-12.075-13.397-12.16-14.336-11.349-87.808 0.725-60.203 1.067-66.645 4.48-79.829 6.94-27.735 22.474-51.128 43.559-67.813l0.259-0.198c13.445-10.665 29.529-18.645 47.085-22.83l0.83-0.167 15.147-3.883h356.693c341.675 0 357.248 0.128 370.347 3.157 33.749 7.851 59.051 24.875 77.696 52.352 8.576 12.629 12.843 22.528 17.365 40.064 3.2 12.288 3.627 20.096 4.309 79.104 0.896 73.472 0.768 74.411-11.307 87.851-8.021 8.875-16.683 12.501-33.451 13.824-19.883 1.621-29.013 3.925-44.8 11.435-23.424 11.136-43.947 34.261-53.76 60.501-3.243 8.747-3.755 13.483-3.755 34.859s0.512 26.112 3.755 34.859c5.845 15.573 13.867 27.904 26.112 40.149 19.712 19.712 38.101 28.117 67.755 30.933 21.205 2.005 29.653 5.248 38.144 14.677 12.075 13.44 12.203 14.379 11.307 87.851-0.683 59.008-1.109 66.816-4.309 79.104-4.523 17.664-8.789 27.435-17.707 40.533-12.283 18.074-28.762 32.434-48.084 41.877l-0.727 0.321c-13.227 6.528-26.581 9.813-49.024 11.904-22.912 2.176-678.528 2.048-701.056-0.128zM869.291 743.509c8.619-2.901 20.821-15.232 23.296-23.552 1.109-3.669 2.389-23.936 2.901-45.824l0.939-39.253-11.733-3.029c-23.253-6.016-52.608-22.187-72.363-39.808-42.709-38.101-65.109-87.68-65.109-144.043-0.001-0.278-0.002-0.606-0.002-0.935 0-84.822 55.447-156.693 132.073-181.346l1.348-0.375 14.507-4.565-0.171-38.229c-0.085-24.533-0.896-40.875-2.219-45.653-2.56-9.088-14.037-21.077-23.381-24.363-9.941-3.499-704.811-3.499-714.752 0-9.344 3.285-20.821 15.275-23.381 24.363-1.323 4.779-2.133 21.12-2.219 45.568l-0.171 38.187 14.763 4.821c68.267 22.272 116.736 77.355 130.517 148.224 3.029 15.616 3.413 49.707 0.725 65.024-5.355 28.569-15.758 53.972-30.322 76.425l0.498-0.82c-14.664 20.932-32.303 38.599-52.529 52.839l-0.676 0.451c-13.44 8.917-38.955 20.693-52.309 24.192l-11.52 2.987v29.056c0.043 38.741 2.048 55.851 7.637 64.299 6.571 9.941 15.701 15.104 29.312 16.725 6.443 0.768 166.059 1.28 354.731 1.109 276.949-0.213 344.32-0.683 349.611-2.475zM413.653 701.568c-10.333-3.519-18.737-10.43-24.080-19.381l-0.112-0.203c-4.608-7.808-4.608-7.979-4.608-42.112v-34.261l5.163-8.405c7.549-12.6 21.13-20.904 36.651-20.904s29.102 8.304 36.543 20.711l0.107 0.193 5.163 8.405v34.261c0 34.133 0 34.304-4.608 42.112-7.531 12.997-21.374 21.6-37.227 21.6-4.641 0-9.109-0.737-13.295-2.101l0.303 0.085zM409.6 508.416c-9.526-4.729-17.012-12.366-21.428-21.735l-0.119-0.281c-3.755-7.979-4.011-10.539-4.011-38.4s0.256-30.421 4.011-38.4c7.723-16.256 21.333-25.088 38.613-25.088s30.891 8.832 38.613 25.088c3.755 7.979 4.011 10.539 4.011 38.4s-0.256 30.421-4.011 38.4c-4.557 9.774-12.201 17.473-21.658 21.984l-0.273 0.117c-8.021 3.371-25.941 3.328-33.749-0.085zM413.653 317.568c-10.333-3.519-18.737-10.43-24.080-19.381l-0.112-0.203c-4.608-7.808-4.608-7.979-4.608-42.112v-34.261l5.163-8.405c7.549-12.6 21.13-20.904 36.651-20.904s29.102 8.304 36.543 20.711l0.107 0.193 5.163 8.405v34.261c0 34.133 0 34.304-4.608 42.112-7.531 12.997-21.374 21.6-37.227 21.6-4.641 0-9.109-0.737-13.295-2.101l0.303 0.085z" />
<glyph unicode="&#xe915;" glyph-name="dots-vertical" d="M495.77 830.362c-29.901-6.572-53.726-27.671-64.007-55.354l-0.198-0.608c-2.644-8.316-4.167-17.881-4.167-27.802s1.524-19.486 4.349-28.473l-0.182 0.672c7.885-22.989 29.542-44.698 52.531-52.531 16.384-5.581 39.424-5.581 55.808 0 24.325 9.334 43.197 28.206 52.323 51.915l0.208 0.616c5.581 16.333 5.581 39.424 0 55.757-7.782 22.63-29.542 44.595-51.661 52.173-12.083 4.147-34.406 5.939-45.005 3.635zM495.77 531.712c-29.901-6.572-53.726-27.671-64.007-55.354l-0.198-0.608c-2.643-8.324-4.166-17.898-4.166-27.827s1.523-19.503 4.348-28.5l-0.182 0.673c9.346-24.318 28.213-43.185 51.915-52.322l0.616-0.209c16.384-5.581 39.424-5.581 55.808 0 24.318 9.346 43.185 28.213 52.322 51.915l0.209 0.616c5.581 16.384 5.581 39.424 0 55.808-7.782 22.63-29.542 44.595-51.661 52.173-12.083 4.147-34.406 5.939-45.005 3.635zM495.77 233.011c-29.91-6.553-53.743-27.66-64.008-55.354l-0.197-0.608c-2.644-8.316-4.167-17.881-4.167-27.802s1.524-19.486 4.349-28.473l-0.182 0.672c9.346-24.318 28.213-43.185 51.915-52.322l0.616-0.209c16.384-5.581 39.424-5.581 55.808 0 14.643 5.018 30.259 16.691 40.602 30.362 11.213 14.899 15.872 29.594 15.872 50.074 0 12.493-0.87 18.842-3.942 27.853-7.782 22.63-29.542 44.646-51.661 52.173-12.083 4.147-34.406 5.939-45.005 3.635z" />
<glyph unicode="&#xe916;" glyph-name="arrow-left" d="M542.165 158.166l-225.835 225.835h494.336c23.552 0 42.667 19.115 42.667 42.667s-19.115 42.667-42.667 42.667h-494.336l225.835 225.835c16.683 16.683 16.683 43.691 0 60.331s-43.691 16.683-60.331 0l-298.667-298.667c-4.096-4.096-7.168-8.789-9.259-13.824-2.176-5.205-3.243-10.795-3.243-16.341 0-10.923 4.181-21.845 12.501-30.165l298.667-298.667c16.683-16.683 43.691-16.683 60.331 0s16.683 43.691 0 60.331z" />
</font>
</defs>
</svg>
